Mortal Engines 2018 720p HDCAM [email protected] Torrent Free Download

Seeders : 500   &   Leechers : 523      07-12-2018 (1 week)
Mortal Engines 2018 720p HDCAM [email protected] Torrent Download
Added: ago by iMaX100 ***** in Movies   1.3 GB   Hits : 16
Info Hash: 9BA518811C223F3C9ABCBE3B5ADA26C503E91FEC Download
Mortal Engines 2018 720p HDCAM [email protected] Torrent Download

Anonymous and Direct Download movies , software , shows...

Fast Safe Anonymous
movies, software, shows...
Mortal Engines
Action /Adventure /Fantasy /Sci-Fi /Thriller  .   128 min   6.5/10
Starring : Hera Hilmar  Robert Sheehan  Hugo Weaving  Jihae  
Director : Christian Rivers  
Tags: Mortal  Engines  2018  720p  HDCAM  [email protected]  

Released:
14 Dec 2018
In a post-apocalyptic world where cities ride on wheels and consume each other to survive, two people meet in London and try to stop a conspiracy.

Torrent Description



Language: English

Genre: Action | Adventure | Fantasy | Sci-Fi | Thriller

A mysterious young woman named Hester Shaw joins forces with Anna Fang, a dangerous outlaw with a bounty on her head, and Tom Natsworthy, an outcast from London, to lead a rebellion against a giant predator city on wheels.




Code:

Format : Matroska
Format version : Version 4 / Version 2
File size : 1.35 GiB
Duration : 1 h 58 min
Overall bit rate : 1 628 kb/s
Movie name : www.SANET.st
Encoded date : UTC 2018-12-07 06:11:33
Writing application : mkvmerge v19.0.0 ('Brave Captain') 64-bit
Writing library : libebml v1.3.5 + libmatroska v1.4.8

Video
ID : 1
Format : AVC
Format/Info : Advanced Video Codec
Format profile : [email protected]
Format settings : CABAC / 4 Ref Frames
Format settings, CABAC : Yes
Format settings, RefFrames : 4 frames
Codec ID : V_MPEG4/ISO/AVC
Duration : 1 h 58 min
Bit rate : 1 402 kb/s
Width : 1 280 pixels
Height : 536 pixels
Display aspect ratio : 2.40:1
Frame rate mode : Constant
Frame rate : 23.976 (24000/1001) FPS
Color space : YUV
Chroma subsampling : 4:2:0
Bit depth : 8 bits
Scan type : Progressive
Bits/(Pixel*Frame) : 0.085
Stream size : 1.16 GiB (86%)
Title : www.SANET.st
Writing library : x264 core 155 r2901 7d0ff22
Encoding settings : cabac=1 / ref=3 / deblock=1:0:0 / analyse=0x3:0x113 / me=hex / subme=7 / psy=1 / psy_rd=1.00:0.00 / mixed_ref=1 / me_range=16 / chroma_me=1 / trellis=1 / 8x8dct=1 / cqm=0 / deadzone=21,11 / fast_pskip=1 / chroma_qp_offset=-2 / threads=12 / lookahead_threads=2 / sliced_threads=0 / nr=0 / decimate=1 / interlaced=0 / bluray_compat=0 / constrained_intra=0 / bframes=3 / b_pyramid=2 / b_adapt=1 / b_bias=0 / direct=1 / weightb=1 / open_gop=0 / weightp=2 / keyint=240 / keyint_min=23 / scenecut=40 / intra_refresh=0 / rc_lookahead=40 / rc=2pass / mbtree=1 / bitrate=1402 / ratetol=1.0 / qcomp=0.60 / qpmin=0 / qpmax=69 / qpstep=4 / cplxblur=20.0 / qblur=0.5 / ip_ratio=1.40 / aq=1:1.00
Default : Yes
Forced : No

Audio
ID : 2
Format : AC-3
Format/Info : Audio Coding 3
Codec ID : A_AC3
Duration : 1 h 58 min
Bit rate mode : Constant
Bit rate : 224 kb/s
Channel(s) : 2 channels
Channel positions : Front: L R
Sampling rate : 48.0 kHz
Frame rate : 31.250 FPS (1536 SPF)
Bit depth : 16 bits
Compression mode : Lossy
Stream size : 190 MiB (14%)
Title : www.SANET.st
Language : English
Service kind : Complete Main
Default : Yes
Forced : No




Sharing Widget


No Comments For This Torrent . Be The First to Comment

You must Login to Comment . Click Here to Login

Menu 1

Some content in menu 1.

Mortal Engines 2018 720p HDCAM [email protected] (Size: 1.3 GB)
  Mortal Engines 2018 720p HDCAM [email protected] 1.3 GB
tracker name
udp://tracker.leechers-paradise.org:6969/announce
udp://zer0day.ch:1337/announce
udp://open.demonii.com:1337/announce
udp://tracker.coppersurfer.tk:6969/announce
udp://exodus.desync.com:6969/announce
µTorrent compatible trackers list

Relative Torrents

Torrent Name Size Age SEED LEECH
Hunter Killer 2018 HC 720p HDRip X264 Wih Sample LLG
Posted by    LifeLongg   in   Movies
1.6 GB 1 minute 984 717
Who Do You Think You Are US S11E04 Matthw Morrison 720p WEBRip x264-CAFFEiNE [e
Posted by    EZTVag   in   TV
966.3 MB 5 minutes 961 996
Who Do You Think You Are US S11E03 Regin King 720p WEBRip x264-CAFFEiNE [eztv]
Posted by    EZTVag   in   TV
845.8 MB 10 minutes 116 111
Idiotest S01E19 720p WEB X264-INFLATE [etv]
Posted by    EZTVag   in   TV
494.2 MB 15 minutes 636 369
Idiotest S01E20 720p WEB X264-INFLATE [etv]
Posted by    EZTVag   in   TV
494.0 MB 15 minutes 391 194