Thugbaaz (2018) 720p UNCUT Hindi (DD 2 0 Torrent Free Download

Seeders : 974   &   Leechers : 741      04-12-2018 (2 weeks)
Thugbaaz (2018) 720p UNCUT Hindi (DD 2 0 Torrent Download
Added: ago by shmasti ***** in Movies   1.0 GB   Hits : 38
Info Hash: 74E7B23005CEBBF707206266F4F5E5E8E4EEB42D Download
Thugbaaz (2018) 720p UNCUT Hindi (DD 2 0 Torrent Download

Anonymous and Direct Download movies , software , shows...

Fast Safe Anonymous
movies, software, shows...

Torrent Description





General
Complete name : Thugbaaz (2018) 720p UNCUT Hindi (DD 2.0) HDRip x264 AC3 by Full4movies.mkv
Format : Matroska
Format version : Version 4 / Version 2
File size : 1.04 GiB
Duration : 1 h 46 min
Overall bit rate : 1 394 kb/s
Movie name : www.Full4movies.co
Encoded date : UTC 2018-12-03 15:28:59
Writing application : mkvmerge v8.1.0 ('Psychedelic Postcard') 32bit
Writing library : libebml v1.3.1 + libmatroska v1.4.2
Cover : Yes
Attachments : Cover.jpeg

Video
ID : 1
Format : AVC
Format/Info : Advanced Video Codec
Format profile : [email protected]
Format settings, CABAC : Yes
Format settings, RefFrames : 3 frames
Codec ID : V_MPEG4/ISO/AVC
Duration : 1 h 46 min
Bit rate : 1 200 kb/s
Width : 1 280 pixels
Height : 544 pixels
Display aspect ratio : 2.35:1
Frame rate mode : Constant
Frame rate : 25.000 FPS
Color space : YUV
Chroma subsampling : 4:2:0
Bit depth : 8 bits
Scan type : Progressive
Bits/(Pixel*Frame) : 0.069
Stream size : 914 MiB (86%)
Writing library : x264 core 79
Language : Tamil
Default : Yes
Forced : No
Color range : Limited
Color primaries : BT.709
Transfer characteristics : BT.709
Matrix coefficients : BT.709

Audio
ID : 2
Format : AC-3
Format/Info : Audio Coding 3
Mode : Dolby Digital
Format settings, Endianness : Big
Codec ID : A_AC3
Duration : 1 h 46 min
Bit rate mode : Constant
Bit rate : 192 kb/s
Channel(s) : 2 channels
Channel positions : Front: L R
Sampling rate : 48.0 kHz
Frame rate : 31.250 FPS (1536 SPF)
Bit depth : 16 bits
Compression mode : Lossy
Stream size : 146 MiB (14%)
Language : Hindi
Service kind : Complete Main
Default : Yes
Forced : No

Screen Shoots




Sharing Widget


No Comments For This Torrent . Be The First to Comment

You must Login to Comment . Click Here to Login

Menu 1

Some content in menu 1.

Thugbaaz (2018) 720p UNCUT Hindi (DD 2 0) HDRip x264 AC3 by Full4movie (Size: 1.0 GB)
  Thugbaaz (2018) 720p UNCUT Hindi (DD 2 0) HDRip x264 AC3 by Full4movie 1.0 GB
tracker name
udp://tracker.leechers-paradise.org:6969/announce
udp://zer0day.ch:1337/announce
udp://open.demonii.com:1337/announce
udp://tracker.coppersurfer.tk:6969/announce
udp://exodus.desync.com:6969/announce
µTorrent compatible trackers list

Relative Torrents

Torrent Name Size Age SEED LEECH
Bigg Boss S12E94 18th December 2018 720pHDTV [ HDHub4u ]
Posted by    300movieshub   in   Movies
398.3 MB 2 minutes 520 633
Billboard Hot 100 Singles Chart (22 12 218) Mp3 (320kbps)
Posted by    Monsterwolf   in   Music
757.5 MB 8 minutes 997 484
Billion Dollar Brain 1967 1080p BluRay H64 AAC
Posted by    Trige   in   Movies
2.1 GB 11 minutes 914 613
Idiotest S01E13 WEB X264-INFLATE [eztv]
Posted by    EZTVag   in   TV
229.5 MB 14 minutes 44 722
The Bravados 1958 1080p BluRay H264 AAC
Posted by    Trige   in   Movies
1.9 GB 14 minutes 247 907